Thursday, 1 August 2013

Premium Rush (2012) 480p - (390 MB) BRRip x264 (Dual Audio)

 
 
 
 
IMDB Rating: 6.5/10.0

GENRE: Action | Thriller



General
Complete name : Premium Rush (2012) 480p - [390 MB] BRRip x264[Dual-Audio][English+Hindi] - Mafiaking [Team EXD].mkv
Format : Matroska
Format version : Version 2
File size : 388 MiB
Duration : 1h 30mn
Overall bit rate : 597 Kbps
Movie name : Premium Rush (2012) 480p - [390 MB] BRRip x264[Dual-Audio][English+Hindi] - Mafiaking [Team EXD]
Encoded date : UTC 2013-07-28 08:41:40
Writing application : mkvmerge v5.7.0 (‘The Whirlwind’) built on Jul 8 2012 20:08:51
Writing library : libebml v1.2.3 + libmatroska v1.3.0







Video
ID : 1
Format : AVC
Format/Info : Advanced Video Codec
Format profile : High@L3.0
Format settings, CABAC : Yes
Format settings, ReFrames : 4 frames
Muxing mode : Header stripping
Codec ID : V_MPEG4/ISO/AVC
Duration : 1h 30mn
Bit rate : 499 Kbps
Width : 720 pixels
Height : 304 pixels
Display aspect ratio : 2.35:1
Frame rate mode : Constant
Frame rate : 23.976 fps
Color space : YUV
Chroma subsampling : 4:2:0
Bit depth : 8 bits
Scan type : Progressive
Bits/(Pixel*Frame) : 0.095
Stream size : 318 MiB (82%)
Title : Mafiaking

Language : English
Default : Yes
Forced : No





Audio #1
ID : 2
Format : MPEG Audio
Format version : Version 2
Format profile : Layer 3
Mode : Joint stereo
Mode extension : MS Stereo
Muxing mode : Header stripping
Codec ID : A_MPEG/L3
Codec ID/Hint : MP3
Duration : 1h 30mn
Bit rate mode : Constant
Bit rate : 48.0 Kbps
Channel(s) : 2 channels
Sampling rate : 22.05 KHz
Compression mode : Lossy
Stream size : 31.2 MiB (8%)
Title : Mafiaking
Writing library : LAME3.99.5LAME
Language : Hindi
Default : Yes
Forced : No





Audio #2
ID : 3
Format : MPEG Audio
Format version : Version 2
Format profile : Layer 3
Mode : Joint stereo
Mode extension : MS Stereo
Muxing mode : Header stripping
Codec ID : A_MPEG/L3
Codec ID/Hint : MP3
Duration : 1h 30mn
Bit rate mode : Constant
Bit rate : 48.0 Kbps
Channel(s) : 2 channels
Sampling rate : 22.05 KHz
Compression mode : Lossy
Stream size : 31.2 MiB (8%)
Title : Mafiaking
Writing library : LAME3.99.5LAME
Language : English
Default : No
Forced : No
 

0 comments:

Post a Comment