Friday, 10 January 2014

Empire State [2013] 480p BRRIP x264 365MB Dual Audio [ Eng - Hindi ]









































Info:


Complete name : Empire State [2013] 480p BRRIP x264 365MB Dual Audio [ Eng - Hindi ].mkv


Format : Matroska


Format version : Version 4 / Version 2


File size : 366 MiB


Duration : 1h 34mn


Overall bit rate : 543 Kbps


Movie name : Chaudhary™


Writing library : libebml v1.3.0 + libmatroska v1.4.1

































































































Video


ID : 1


Format : AVC


Format/Info : Advanced Video Codec


Format profile : High@L3.1


Format settings, CABAC : Yes


Format settings, ReFrames : 16 frames


Codec ID : V_MPEG4/ISO/AVC


Duration : 1h 34mn


Bit rate : 445 Kbps


Width : 720 pixels


Height : 304 pixels


Display aspect ratio : 2.35:1


Frame rate mode : Constant


Frame rate : 23.976 fps


Color space : YUV


Chroma subsampling : 4:2:0


Bit depth : 8 bits


Scan type : Progressive


Bits/(Pixel*Frame) : 0.085


Stream size : 294 MiB (80%)


Title : Chaudhary™


Writing library : x264 core 138


Language : English


Default : Yes


Forced : No


Color primaries : Generic film


Transfer characteristics : BT.709


Matrix coefficients : BT.709

































































Audio #1


ID : 2


Format : MPEG Audio


Format version : Version 2


Format profile : Layer 3


Mode : Joint stereo


Mode extension : MS Stereo


Codec ID : A_MPEG/L3


Codec ID/Hint : MP3


Duration : 1h 34mn


Bit rate mode : Constant


Channel count : 2 channels


Compression mode : Lossy


Stream size : 21.6 MiB (6%)


Title : Chaudhary™


Writing library : LAME3.99.5


Language : English


Default : Yes


Forced : No

































































Audio #2


ID : 3


Format : AC-3


Format/Info : Audio Coding 3


Mode extension : CM (complete main)


Format settings, Endianness : Big


Codec ID : A_AC3


Duration : 1h 34mn


Bit rate mode : Constant


Bit rate : 64.0 Kbps


Channel count : 2 channels


Channel positions : Front: L R


Sampling rate : 48.0 KHz


Bit depth : 16 bits


Compression mode : Lossy


Stream size : 43.2 MiB (12%)


Title : Chaudhary™


Language : Hindi


Default : N0




















Screenshots:





























:download:
















0 comments:

Post a Comment